1. Ataide E Alexandre Discografia Completa Download
Александр Панайотов - Дискография (3 CD)

Download free Ataide E Alexandre Discografia. 0 Comments Discografia (2012) Ata Artista: Ataide & Alexandre. Discografia Sertaneja 858,995 views.


Жанр: Pop
Год выпуска дисков: 2006-2014
Производитель дисков:Россия
Аудио кодек: FLAC
Тип рипа: image+.cue
Битрейт аудио: lossless
Источник: Диски из личной коллекции
Наличие сканов: Да (600 dpi, JPG)

2006 - Леди дождя

Леди дождя-Ataide e alexandre discografia completa download-Label:Родина Рекордз
Catalog#: EXL06-266
Год выпуска диска:

Ataide E Alexandre Discografia Completa Download

2006
Производитель диска: Россия
Продолжительность: 47:36--Треклист:
01. Леди дождя C. De Burgh / C. De Burgh (Русский текст: К. Кавалерян)
02. Arrivederci
03. Киев - Москва
04. Цветы под снегом (Александр Панайотов, Лариса Долина)
05. Балалайка (Александр Панайотов, Алексей Чумаков)
06. Только да
07. Лунная мелодия (Александр Панайотов, Лариса Долина)
08. Серые глаза
09. На краю
10. Я тебе не верю
11. Голос
12. Необыкновенная (Александр Панайотов, Алексей Чумаков, Руслан Алехно)
13. Скажите, девушки (Александр Панайотов, Неаполитанский ансамбль им. Н. Д. Мисаилова)
14. Видеоклип «Необыкновенная»
15. Видеоклип «Балалайка»

Лог снятия рипа

[pre]Exact Audio Copy V0.99 prebeta 5 from 4. May 2009
EAC extraction logfile from 22. August 2010, 21:55
Александр Панайотов / Леди дождя
Used drive : PIONEER DVD-RW DVR-212 Adapter: 8 ID: 0
Read mode : SecureUtilize accurate stream : YesDefeat audio cache : YesMake use of C2 pointers : No
Read offset correction : 48Overread into Lead-In and Lead-Out : NoFill up missing offset samples with silence : YesDelete leading and trailing silent blocks : NoNull samples used in CRC calculations : YesUsed interface : Installed external ASPI interface
Used output format : Internal WAV RoutinesSample format : 44.100 Hz; 16 Bit; Stereo
TOC of the extracted CD
Track Start Length Start sector End sector --------------------------------------------------------- 1 0:00.00 3:56.00 0 17699 2 3:56.00 4:12.38 17700 36637 3 8:08.38 3:19.38 36638 51600 4 11:28.01 4:21.10 51601 71185 5 15:49.11 3:03.13 71186 84923 6 18:52.24 3:42.01 84924 101574 7 22:34.25 3:49.00 101575 118749 8 26:23.25 3:21.62 118750 133886 9 29:45.12 3:15.38 133887 148549 10 33:00.50 3:29.17 148550 164241 11 36:29.67 4:13.40 164242 183256 12 40:43.32 3:49.10 183257 200441 13 44:32.42 3:03.01 200442 214167 14 50:07.43 8:16.02 225568 262769
Range status and errors
Selected range
Filename J:MP3Александр Панайотов (FLAC)2006 Леди дождяАлександр Панайотов - Леди дождя.wav
Peak level 99.2 % Range quality 100.0 % Test CRC 4AB40603 Copy CRC 4AB40603 Copy OK
No errors occurred
AccurateRip summary
Track 1 not present in databaseTrack 2 not present in databaseTrack 3 not present in databaseTrack 4 not present in databaseTrack 5 not present in databaseTrack 6 not present in databaseTrack 7 not present in databaseTrack 8 not present in databaseTrack 9 not present in databaseTrack 10 not present in databaseTrack 11 not present in databaseTrack 12 not present in databaseTrack 13 not present in database
None of the tracks are present in the AccurateRip database
End of status report

Видеоклип «Необыкновенная»

Продолжительность: 3:48
Видео: MPEG-PS (352x288) 4/3, 1 398 Kbps, 25.000 fps
Аудио: MPEG 1, 224 kbps, 44.1 KHz/16 bits, 2ch.stereo

Видеоклип «Балалайка»

Продолжительность: 3:22
Видео: MPEG-PS (352x288) 4/3, 1 396 Kbps, 25.000 fps
Аудио: MPEG 1, 224 kbps, 44.1 KHz/16 bits, 2ch.stereo

2010 - Формула любви

Формула любви--Label:
Catalog#: EXL 10-459
Производитель диска:Россия
Продолжительность: 49:48
Мастеринг: Bjorn Endelman @ Cutting Room, Sweden--Треклист:
01. Она
02. Формула любви
03. Angel like you
04. Без тебя
05. Супергерой
06. Небо в твоих глазах
07. Когда звёзды тают
08. Снег
09. In my heart
10. Мечта
11. Всё или ничего
12. Половинки лета
13. Hunter (с Н. Паволоцкой)
14. Формула любви (Alex Menco mix)

Лог снятия рипа

Exact Audio Copy V0.99 prebeta 5 from 4. May 2009
EAC extraction logfile from 11. July 2010, 0:42
Александр Панайотов / Формула любви
Used drive : PIONEER DVD-RW DVR-212 Adapter: 8 ID: 0
Read mode : SecureUtilize accurate stream : YesDefeat audio cache : YesMake use of C2 pointers : No
Read offset correction : 48Overread into Lead-In and Lead-Out : NoFill up missing offset samples with silence : YesDelete leading and trailing silent blocks : NoNull samples used in CRC calculations : YesUsed interface : Installed external ASPI interface
Used output format : Internal WAV RoutinesSample format : 44.100 Hz; 16 Bit; Stereo
TOC of the extracted CD
Track Start Length Start sector End sector --------------------------------------------------------- 1 0:00.00 3:18.15 0 14864 2 3:18.15 3:15.17 14865 29506 3 6:33.32 3:50.44 29507 46800 4 10:24.01 3:29.05 46801 62480 5 13:53.06 3:10.56 62481 76786 6 17:03.62 3:22.02 76787 91938 7 20:25.64 4:25.61 91939 111874 8 24:51.50 3:59.64 111875 129863 9 28:51.39 2:59.53 129864 143341 10 31:51.17 3:54.62 143342 160953 11 35:46.04 3:05.20 160954 174848 12 38:51.24 3:35.42 174849 191015 13 42:26.66 4:05.18 191016 209408 14 46:32.09 3:15.59 209409 224092
Range status and errors
Selected range
Filename J:MP3Александр Панайотов (FLAC)2010 Формула любвиАлександр Панайотов - Формула любви.wav
Peak level 99.6 % Range quality 99.9 % Test CRC E49E772F Copy CRC E49E772F Copy OK
No errors occurred
AccurateRip summary
Track 1 not present in databaseTrack 2 not present in databaseTrack 3 not present in databaseTrack 4 not present in databaseTrack 5 not present in databaseTrack 6 not present in databaseTrack 7 not present in databaseTrack 8 not present in databaseTrack 9 not present in databaseTrack 10 not present in databaseTrack 11 not present in databaseTrack 12 not present in databaseTrack 13 not present in databaseTrack 14 not present in database
None of the tracks are present in the AccurateRip database
End of status report

2014 - Альфа и Омега

Альфа и Омега--Label:United Music Group
Catalog#: UMGCD14-494
Производитель диска:Россия
Продолжительность: 43:44--Треклист:
01. Новый день
02. Напополам
03. За горизонт
04. Полетим
05. Где ты?
06. Нереальная
07. Я рисую
08. На свет
09. Альфа и Омега
10. Into Your Heart

Лог снятия рипа

Exact Audio Copy V1.3 from 2. September 2016
EAC extraction logfile from 8. September 2017, 0:07
Александр Панайотов / Альфа и Омега
Used drive : PIONEER DVD-RW DVR-212 Adapter: 1 ID: 2
Read mode : SecureUtilize accurate stream : YesDefeat audio cache : YesMake use of C2 pointers : No
Read offset correction : 48Overread into Lead-In and Lead-Out : NoFill up missing offset samples with silence : YesDelete leading and trailing silent blocks : NoNull samples used in CRC calculations : YesUsed interface : Native Win32 interface for Win NT & 2000
Used output format : Internal WAV RoutinesSample format : 44.100 Hz; 16 Bit; Stereo
TOC of the extracted CD
Track Start Length Start sector End sector --------------------------------------------------------- 1 0:00.00 4:04.63 0 18362 2 4:04.63 4:07.14 18363 36901 3 8:12.02 4:06.14 36902 55365 4 12:18.16 4:04.52 55366 73717 5 16:22.68 3:40.29 73718 90246 6 20:03.22 4:06.46 90247 108742 7 24:09.68 3:20.01 108743 123743 8 27:29.69 4:45.74 123744 145192 9 32:15.68 6:41.17 145193 175284 10 38:57.10 4:46.51 175285 196785
Range status and errors
Selected range
Filename M:FLAC (bruk67)MP3Александр Панайотов (FLAC)2014 Альфа и ОмегаАлександр Панайотов - Альфа и Омега.wav
Peak level 96.6 % Extraction speed 5.2 X Range quality 99.9 % Test CRC 314B07A9 Copy CRC 314B07A9 Copy OK
No errors occurred
AccurateRip summary
Track 1 not present in databaseTrack 2 not present in databaseTrack 3 not present in databaseTrack 4 not present in databaseTrack 5 not present in databaseTrack 6 not present in databaseTrack 7 not present in databaseTrack 8 not present in databaseTrack 9 not present in databaseTrack 10 not present in database
None of the tracks are present in the AccurateRip database
End of status report
---- CUETools DB Plugin V2.1.6
[CTDB TOCID: 4odxLeOaH8pjsnCdyiP_.8uY5tU-] disk not present in databaseSubmit result: 4odxLeOaH8pjsnCdyiP_.8uY5tU- has been uploaded
Log checksum CD9C6D42BC48C15E967685E85167FFBE01B0E32762AE87C268A6A84A138EC9D9


t_3057191.torrent
Torrent: Registered · [ 2017-09-25 12:20 ] · 586020c4e2903392f0bf7a6434405df436ba0e55

17 KB

Status:checked
Completed:4 times
Size:1.33 GB
Rating:
(Votes: 0)
Say thanks:0
Похожие темы
ForumTopicAuthorTorrentRepliesLast Post
./templates/default/images/folder_dl.gifЗарубежная литератураДиккенс Чарльз - Рождественская песнь в прозе [Александр Клюквин,..00124 MB

01

0

Yesterday 23:35
god56
./templates/default/images/folder_dl.gifКино СССРМалахов курган (Александр Зархи, Иосиф Хейфиц) [1944, военный, SATRip]001.4 GB

02

0

Yesterday 14:15
Shadow123
./templates/default/images/folder_dl.gifКино СССРМалахов курган (Александр Зархи, Иосиф Хейфиц) [1944, военный, SATRip]00744 MB

03

0

Yesterday 14:15
Shadow123
./templates/default/images/folder_dl.gifФильмы 1991-2000Максимальный риск / Maximum Risk (Ринго Лам / Ringo Lam) [1996, США..002.49 GB

06

0

2020-12-20 21:55
FragoMan
./templates/default/images/folder_dl.gifРусская литератураЛапин Александр - Русский крест 01, Утерянный рай [Воля Олег, 2020,..Guest00541 MB

07

0

2020-12-19 02:40
Guest
./templates/default/images/folder_dl.gifРоссийская фантастика, фэнтези, мистика, ужасы, фанфикиМарт Александр - Механики 1, Механики. Том 1 [Борис Клейнберг, 2020,..001015 MB

021

2Free download game beach party craze full version.

2020-12-19 00:20
rychkalov
./templates/default/images/folder_dl.gifРоссийская фантастика, фэнтези, мистика, ужасы, фанфикиКирилл Шарапов- Мёртвый мир. Книга 3 Анклав – [Александр Чайцын,..00585 MB

027

1

2020-12-18 20:50
rychkalov
./templates/default/images/folder_dl.gifРазноеМовчан Андрей, Митров Алексей - Проклятые экономики [Андрей Мовча..00592 MB

05

0

2020-12-17 19:10
manic-manic
./templates/default/images/folder_dl.gifРоссийская фантастика, фэнтези, мистика, ужасы, фанфикиОченков Иван - Стрелок 3, Путь в Туркестан [Александр Чайцын, 2020,..00350 MB

018

1

2020-12-17 19:10
rychkalov
./templates/default/images/folder_dl.gifРоссийская фантастика, фэнтези, мистика, ужасы, фанфикиШарапов Кирилл – БлокАда 2, БлокАда-2.0 [Александр Чайцын, 2020, 64..00322 MB

038

1

2020-12-17 14:30
rychkalov